设为首页收藏本站

Β

 找回密码
 3秒注册

QQ登录

只需一步,快速开始

扫一扫,访问微社区

查看: 4396|回复: 94

寶麗金-超白金精選特輯[2CD][115/整軌][WAV][T113-01銀圈版]

  [复制链接]
发表于 2011-6-3 02:19:45 | 显示全部楼层 |阅读模式

PERFORMER "寶麗金"
TITLE "超白金精選特輯CD1"
FILE "寶麗金 - 超白金精選特輯CD1.wav" WAVE
  TRACK 01 AUDIO
    TITLE "情義倆心知"
    PERFORMER "譚詠麟"
    INDEX 00 00:00:00
    INDEX 01 00:00:33
  TRACK 02 AUDIO
    TITLE "人生何處不相逢"
    PERFORMER "陳慧嫻"
    INDEX 00 03:57:55
    INDEX 01 04:01:45
  TRACK 03 AUDIO
    TITLE "大會堂演奏廳"
    PERFORMER "李克勤"
    INDEX 00 07:53:63
    INDEX 01 07:57:53
  TRACK 04 AUDIO
    TITLE "天變地變情不變"
    PERFORMER "張學友"
    INDEX 00 12:49:43
    INDEX 01 12:53:33
  TRACK 05 AUDIO
    TITLE "舊唱片"
    PERFORMER "草蜢"
    INDEX 00 15:59:53
    INDEX 01 16:03:43
  TRACK 06 AUDIO
    TITLE "Hello Merry X'mas"
    PERFORMER "黃凱芹"
    INDEX 00 20:25:13
    INDEX 01 20:29:03
  TRACK 07 AUDIO
    TITLE "深深深"
    PERFORMER "李克勤"
    INDEX 00 25:19:33
    INDEX 01 25:23:23
  TRACK 08 AUDIO
    TITLE "幾時再見"
    PERFORMER "陳慧嫻"
    INDEX 00 29:15:03
    INDEX 01 29:18:68
  TRACK 09 AUDIO
    TITLE "愛念"
    PERFORMER "譚詠麟"
    INDEX 00 32:31:40
    INDEX 01 32:35:30
  TRACK 10 AUDIO
    TITLE "太陽星辰"
    PERFORMER "張學友"
    INDEX 00 37:10:55
    INDEX 01 37:14:45
  TRACK 11 AUDIO
    TITLE "今天應該很高興"
    PERFORMER "達明一派"
    INDEX 00 41:19:03
    INDEX 01 41:22:68
  TRACK 12 AUDIO
    TITLE "凌晨舊戲"
    PERFORMER "陳慧嫻"
    INDEX 00 46:44:13
    INDEX 01 46:48:03
PERFORMER "寶麗金"
TITLE "超白金精選特輯CD2"
FILE "寶麗金 - 超白金精選特輯CD2.wav" WAVE
  TRACK 01 AUDIO
    TITLE "明月千里寄相思"
    PERFORMER "徐小鳳"
    INDEX 00 00:00:00
    INDEX 01 00:00:33
  TRACK 02 AUDIO
    TITLE "難得有情人"
    PERFORMER "關淑怡"
    INDEX 00 03:23:33
    INDEX 01 03:27:23
  TRACK 03 AUDIO
    TITLE "你還愛我嗎"
    PERFORMER "達明一派"
    INDEX 00 07:09:40
    INDEX 01 07:13:30
  TRACK 04 AUDIO
    TITLE "月半小夜曲"
    PERFORMER "李克勤"
    INDEX 00 11:37:50
    INDEX 01 11:41:40
  TRACK 05 AUDIO
    TITLE "偏愛"
    PERFORMER "譚詠麟/早見優"
    INDEX 00 16:30:05
    INDEX 01 16:33:70
  TRACK 06 AUDIO
    TITLE "傷感的戀人"
    PERFORMER "黃凱芹"
    INDEX 00 21:19:20
    INDEX 01 21:23:10
  TRACK 07 AUDIO
    TITLE "水中花"
    PERFORMER "譚詠麟"
    INDEX 00 25:30:13
    INDEX 01 25:34:03
  TRACK 08 AUDIO
    TITLE "Linda"
    PERFORMER "張學友"
    INDEX 00 29:34:55
    INDEX 01 29:38:45
  TRACK 09 AUDIO
    TITLE "千載不變"
    PERFORMER "溫拿"
    INDEX 00 34:10:43
    INDEX 01 34:14:33
  TRACK 10 AUDIO
    TITLE "石頭記"
    PERFORMER "達明一派"
    INDEX 00 38:00:68
    INDEX 01 38:04:58
  TRACK 11 AUDIO
    TITLE "青蔥歲月"
    PERFORMER "黃凱芹"
    INDEX 00 42:36:43
    INDEX 01 42:40:33
  TRACK 12 AUDIO
    TITLE "飛躍千個夢"
    PERFORMER "草蜢"
    INDEX 00 46:35:63
    INDEX 01 46:39:53

游客,如果您要查看本帖隐藏内容请回复

发表于 2014-5-9 13:49:58 | 显示全部楼层
不知此张的音质去到哪里 先感谢楼主的幸苦发布
发表于 2014-5-9 13:49:54 | 显示全部楼层
不知此张的音质去到哪里 先感谢楼主的幸苦发布
发表于 2013-10-10 08:57:21 | 显示全部楼层
THANK 4 LYR SHARE
THAT IS GOOD SOUND CD
发表于 2011-6-3 08:44:03 | 显示全部楼层
宝丽金   好东东啊  
发表于 2011-6-5 08:09:31 | 显示全部楼层
宝丽金的老专辑, 曲目很喜欢, 感谢分享
发表于 2011-7-11 19:45:33 | 显示全部楼层
谢谢楼主分享!
发表于 2011-7-15 11:21:34 | 显示全部楼层
发表于 2011-7-16 11:46:33 | 显示全部楼层
谢谢分享
发表于 2011-7-17 16:07:25 | 显示全部楼层
你加油吧  
发表于 2011-7-17 16:07:25 | 显示全部楼层
看看..  
发表于 2011-7-19 07:14:44 | 显示全部楼层
好歌流传百年
发表于 2011-7-19 10:51:31 | 显示全部楼层
经典的碟子,谢谢分享!
您需要登录后才可以回帖 登录 | 3秒注册

本版积分规则


QQ|小黑屋|Archiver|手机版|Β     QQ群78515519

GMT+8, 2014-11-28 12:08 , Processed in 0.192760 second(s), 24 queries .

始于2004年 我要去听论坛 X3.2

© 2004-2014 51QT CoM.

快速回复 返回顶部 返回列表